<?xml version="1.0" standalone="no"?>
<!DOCTYPE svg PUBLIC "-//W3C//DTD SVG 1.1//EN" "http://www.w3.org/Graphics/SVG/1.1/DTD/svg11.dtd" >
<svg xmlns="http://www.w3.org/2000/svg">
<metadata>Generated by IcoMoon</metadata>
<defs>
<font id="icomoon" horiz-adv-x="1024">
<font-face units-per-em="1024" ascent="960" descent="-64" />
<missing-glyph horiz-adv-x="1024" />
<glyph unicode="&#x20;" horiz-adv-x="512" d="" />
<glyph unicode="&#xe900;" glyph-name="menu" d="M128 704h768v-85.333h-768v85.333zM128 490.667h768v-85.333h-768v85.333zM128 277.333h768v-85.333h-768v85.333z" />
<glyph unicode="&#xe901;" glyph-name="content-copy" d="M810.667 64h-469.333v597.333h469.333zM810.667 746.667h-469.333c-47.128 0-85.333-38.205-85.333-85.333v0-597.333c0-47.128 38.205-85.333 85.333-85.333v0h469.333c47.128 0 85.333 38.205 85.333 85.333v0 597.333c0 47.128-38.205 85.333-85.333 85.333v0zM682.667 917.333h-512c-47.128 0-85.333-38.205-85.333-85.333v0-597.333h85.333v597.333h512v85.333z" />
<glyph unicode="&#xe902;" glyph-name="arrow-up" d="M554.667 106.667h-85.333v512l-234.667-234.667-60.587 60.587 337.92 337.92 337.92-337.92-60.587-60.587-234.667 234.667v-512z" />
<glyph unicode="&#xe903;" glyph-name="sort-variant" d="M128 405.333h512v85.333h-512zM128 704v-85.333h768v85.333zM128 192h256v85.333h-256v-85.333z" />
<glyph unicode="&#xe904;" glyph-name="filter-variant" d="M256 405.333h512v85.333h-512zM128 704v-85.333h768v85.333zM426.667 192h170.667v85.333h-170.667v-85.333z" />
<glyph unicode="&#xe905;" glyph-name="magnify" d="M405.333 832c153.167 0 277.333-124.166 277.333-277.333v0c0-68.693-25.173-131.84-66.56-180.48l11.52-11.52h33.707l213.333-213.333-64-64-213.333 213.333v33.707l-11.52 11.52c-48.64-41.387-111.787-66.56-180.48-66.56-153.167 0-277.333 124.166-277.333 277.333v0c0 153.167 124.166 277.333 277.333 277.333v0zM405.333 746.667c-106.667 0-192-85.333-192-192s85.333-192 192-192c106.667 0 192 85.333 192 192s-85.333 192-192 192z" />
<glyph unicode="&#xe906;" glyph-name="rugby" d="M692.053 267.947c86.613 86.613 132.693 201.387 137.813 342.187-46.507-102.827-112.64-196.693-197.973-282.027s-179.2-151.467-282.027-197.973c140.8 3.84 254.293 49.92 342.187 137.813zM331.947 628.053c-86.613-86.613-132.693-201.387-137.813-342.187 19.2 42.667 49.067 91.733 87.893 147.2 37.973 55.467 75.52 100.267 110.080 134.827 85.333 85.333 179.2 151.467 282.027 197.973-140.8-3.84-254.293-49.92-342.187-137.813zM874.667 810.667c21.333-23.467 35.84-68.693 41.387-136.533 5.12-68.267-5.12-147.627-31.147-238.933-26.027-91.733-69.547-167.68-130.987-229.12-55.893-56.747-122.453-97.28-199.253-122.88-76.373-26.027-151.893-39.253-226.56-39.253-90.88 0-150.187 14.080-178.773 41.387-21.333 23.467-35.84 68.693-41.387 136.533-5.12 68.267 5.12 147.627 31.147 238.933 26.027 91.733 69.547 167.68 130.987 229.12 55.893 56.747 122.453 97.28 199.253 122.88 76.373 26.027 151.893 39.253 226.56 39.253 90.88 0 150.187-14.080 178.773-41.387z" />
<glyph unicode="&#xe907;" glyph-name="cards-outline" d="M477.44 864c-11.093 0-22.187-2.56-32.853-6.4l-314.027-130.133c-43.52-17.92-64.427-67.84-46.507-110.933l211.627-509.867c13.227-32.853 44.373-52.48 77.227-53.333 11.093 0 22.613 1.28 33.707 6.4l314.453 130.133c32 13.227 51.627 44.8 52.48 76.8 0.427 10.667-1.707 23.040-5.547 34.133l-213.333 509.867c-12.373 32.853-43.947 52.907-77.227 53.333zM625.92 864l147.2-356.267v270.933c0 47.128-38.205 85.333-85.333 85.333v0zM858.88 798.293v-385.28l103.68 250.027c17.493 43.52-2.56 93.013-46.507 110.933zM477.44 779.947l212.48-512.853-315.307-130.56-212.48 512.427z" />
<glyph unicode="&#xe908;" glyph-name="school" d="M512 832l-469.333-256 469.333-256 384 209.493v-294.827h85.333v341.333zM213.333 397.653v-170.667l298.667-162.987 298.667 162.987v170.667l-298.667-162.987-298.667 162.987z" />
<glyph unicode="&#xe909;" glyph-name="horse-variant" d="M853.333 618.667v-341.333l-128-42.667-131.84 234.667c-11.093 19.627-42.24 9.813-38.827-13.227l42.667-392.107-426.667 170.667 49.067 343.893c20.907 145.493 145.493 253.44 292.267 253.44h341.333l-67.413-101.12c40.107-21.76 67.413-63.573 67.413-112.213z" />
<glyph unicode="&#xe90a;" glyph-name="racing-helmet" d="M93.867 482.133c-8.533-102.4 21.333-187.733 85.333-264.533s149.333-110.933 251.733-110.933h426.667c21.333 0 42.667 8.533 59.733 25.6s25.6 38.4 25.6 59.733v34.133c0 25.6-4.267 55.467-8.533 93.867h-349.867c-42.667 0-76.8 17.067-106.667 46.933s-46.933 68.267-46.933 106.667c0 68.267 29.867 115.2 93.867 140.8l204.8 89.6c-72.533 51.2-157.867 81.067-256 85.333-93.867 8.533-179.2-21.333-256-81.067s-115.2-132.267-123.733-226.133zM516.267 473.6c0-17.067 8.533-34.133 21.333-46.933s29.867-21.333 46.933-21.333h332.8c-25.6 93.867-64 170.667-119.467 230.4l-238.933-98.133c-29.867-8.533-42.667-29.867-42.667-64z" />
<glyph unicode="&#xe90b;" glyph-name="tennis-ball-outline" d="M348.587 842.24c52.053 21.333 107.52 32.427 163.413 32.427s111.36-11.093 163.413-32.427c51.627-21.333 98.56-52.907 138.24-92.587s71.253-86.613 92.587-138.24c21.333-52.053 32.427-107.52 32.427-163.413 0-113.067-44.8-221.867-125.013-301.653-79.787-80.213-188.587-125.013-301.653-125.013-55.893 0-111.36 11.093-163.413 32.427-51.627 21.333-98.56 52.907-138.24 92.587-80.213 79.787-125.013 188.587-125.013 301.653s44.8 221.867 125.013 301.653c39.68 39.68 86.613 71.253 138.24 92.587zM293.973 185.6c61.013-50.773 137.813-78.933 218.027-78.933s157.013 28.16 218.027 78.933c-56.32 72.107-90.027 163.413-90.027 262.4s33.707 189.867 90.027 262.4c-60.587 50.773-137.813 78.933-218.027 78.933s-157.013-28.16-218.027-78.933c56.32-72.533 90.027-163.413 90.027-262.4s-33.707-190.293-90.027-262.4zM234.667 248.747c40.107 56.32 64 125.013 64 199.253s-23.893 142.933-64 198.827c-41.387-57.6-64-127.147-64-198.827s22.613-141.227 64-199.253zM789.333 646.827c-40.107-55.893-64-124.587-64-198.827s23.893-142.933 64-199.253c41.387 58.027 64 127.147 64 199.253 0 71.68-22.613 141.227-64 198.827z" />
<glyph unicode="&#xe90c;" glyph-name="hockey-sticks" d="M754.347 789.333h-144.213l-74.24-170.667c-1.28-1.707-4.693-9.387-10.667-21.333s-10.667-23.040-13.227-29.44l-98.133 221.44h-144.213l174.507-377.173c3.84-9.387 13.653-32 29.867-67.84 16.64-36.267 28.587-63.147 37.973-81.92l60.16-131.84c8.107-14.507 20.48-21.76 37.973-21.76l200.533-2.133v170.667h-170.667l-59.733 134.827 174.080 377.173zM854.613 277.333v-170.667h84.053v128c0 11.52-3.84 21.333-11.947 30.72-8.107 8.533-17.92 11.947-30.72 11.947h-41.387zM213.333 277.333v-170.667l200.533 2.133c17.493 0 29.867 7.253 37.973 21.76l36.267 82.773-68.267 146.773-35.84-82.773h-170.667zM85.333 106.667h84.053v170.667h-41.387c-12.8 0-22.613-3.413-30.72-11.947-8.107-9.387-11.947-19.2-11.947-30.72v-128z" />
<glyph unicode="&#xe90d;" glyph-name="run" d="M576 725.333c46.507 0 85.333 39.253 85.333 85.333 0 47.787-38.827 85.333-85.333 85.333-47.36 0-85.333-37.547-85.333-85.333 0-46.080 37.973-85.333 85.333-85.333zM421.973 133.12l42.667 186.88 90.027-85.333v-256h85.333v320l-90.027 85.333 26.027 128c55.040-64 140.373-106.667 234.667-106.667v85.333c-81.493 0-149.333 42.667-183.893 103.253l-42.667 67.413c-17.067 26.453-42.667 42.667-72.107 42.667-13.227 0-21.333-3.413-34.56-3.413l-221.44-93.867v-201.387h85.333v145.92l76.373 29.867-68.267-346.453-209.067 42.667-17.067-85.333 298.667-58.88z" />
<glyph unicode="&#xe90e;" glyph-name="tennis" d="M768 320c94.257 0 170.667-76.41 170.667-170.667v0c0-94.257-76.41-170.667-170.667-170.667v0c-94.257 0-170.667 76.41-170.667 170.667v0c0 94.257 76.41 170.667 170.667 170.667v0zM768 234.667c-47.128 0-85.333-38.205-85.333-85.333v0c0-47.128 38.205-85.333 85.333-85.333v0c47.128 0 85.333 38.205 85.333 85.333v0c0 47.128-38.205 85.333-85.333 85.333v0zM258.133 339.627c0 0 60.16 60.587 60.587 180.907-15.36 93.44 21.333 203.093 105.387 286.72 125.013 125.013 307.2 145.493 407.893 46.080 99.413-100.693 78.933-282.88-46.080-407.893-83.627-84.053-193.28-120.747-286.72-105.387-120.32-0.427-180.907-60.587-180.907-60.587l-180.907-180.907-60.16 60.16 180.907 180.907zM770.987 792.32c-66.987 66.56-194.987 46.507-286.72-45.653-91.307-91.307-111.787-219.733-45.227-286.293 66.987-66.56 194.987-46.080 286.293 45.227 92.16 91.733 112.213 219.733 45.653 286.72z" />
<glyph unicode="&#xe90f;" glyph-name="football" d="M357.973 64l-229.973 229.973c0-46.507 1.707-89.6 8.533-128.853 6.4-39.253 12.8-62.72 21.76-70.827 8.107-8.96 31.147-15.36 69.973-22.187s81.92-8.107 129.707-8.107zM661.333 538.027l-239.36-239.36-59.307 59.307 239.36 239.36 59.307-59.307zM140.373 401.92l325.547-325.547c118.613 21.333 212.48 66.56 282.027 135.68 69.12 69.547 114.347 163.413 135.68 282.027l-325.547 325.547c-118.613-21.333-212.48-66.56-282.027-135.68s-114.347-163.413-135.68-282.027zM666.027 832l229.973-229.973c0 46.507-1.707 89.6-8.107 128.853-6.827 39.253-13.227 62.72-22.187 70.827-8.107 8.96-31.147 15.36-69.973 21.76s-81.92 8.533-129.707 8.533z" />
<glyph unicode="&#xe910;" glyph-name="tennis-ball" d="M512 874.667c106.667 0 202.667-38.4 277.333-102.4-91.307-78.080-149.333-194.56-149.333-324.267s58.027-246.187 149.333-324.267c-74.667-64-170.667-102.4-277.333-102.4s-202.667 38.4-277.333 102.4c91.307 78.080 149.333 194.56 149.333 324.267s-58.027 246.187-149.333 324.267c74.667 64 170.667 102.4 277.333 102.4zM938.667 448c0-98.987-33.707-189.867-90.453-262.4-75.093 62.72-122.88 157.013-122.88 262.4s47.787 199.68 122.88 262.4c56.747-72.533 90.453-163.413 90.453-262.4zM85.333 448c0 98.987 33.707 189.867 90.453 262.4 75.093-62.72 122.88-157.013 122.88-262.4s-47.787-199.68-122.88-262.4c-56.747 72.533-90.453 163.413-90.453 262.4z" />
<glyph unicode="&#xe911;" glyph-name="soccer" d="M722.347 229.547l-34.133 58.027 62.293 186.453 60.16 20.053 42.667-32c0-1.28 0-3.413 0-5.973 0-2.987 1.28-5.547 1.28-8.107 0-84.053-28.16-158.293-84.053-222.293l-48.213 3.84zM416 320l-58.453 171.947 154.453 108.373 154.453-108.373-58.453-171.947h-192zM512 105.387c-37.547 0-72.96 5.973-106.667 17.92l-29.44 64.427 28.16 46.933h218.027l26.027-46.933-29.44-64.427c-33.707-11.947-69.12-17.92-106.667-17.92zM253.44 225.707c-22.613 26.453-42.24 61.867-58.88 104.96-16.64 43.52-25.173 82.773-25.173 117.333 0 2.56 1.28 5.12 1.28 8.107 0 2.56 0 4.693 0 5.973l42.667 32 60.16-20.053 62.293-186.453-34.133-58.027-48.213-3.84zM469.333 734.293v-59.733l-170.667-118.187-57.173 17.92-17.92 58.027c18.773 29.013 46.507 58.027 83.2 86.187s71.68 46.507 104.96 55.893l57.6-40.107zM612.267 774.4c33.28-9.387 68.267-27.733 104.96-55.893s64.427-57.173 83.2-86.187l-17.92-58.027-57.173-18.347-170.667 118.187v60.16l57.6 40.107zM210.347 749.653c-82.347-83.627-125.013-184.32-125.013-301.653s42.667-218.027 125.013-301.653 184.32-125.013 301.653-125.013 218.027 42.667 301.653 125.013 125.013 184.32 125.013 301.653-42.667 218.027-125.013 301.653-184.32 125.013-301.653 125.013-218.027-42.667-301.653-125.013z" />
<glyph unicode="&#xe912;" glyph-name="baseball-bat" d="M853.333 874.667c-11.947 0-21.333-4.693-30.293-12.373l-405.333-405.333c-1.707-1.707-2.987-3.413-109.227-151.893l-137.813-138.24-12.373 12.8c-8.96 8.107-19.2 12.373-30.293 12.373-23.893 0-42.667-18.773-42.667-42.667 0-11.093 4.267-21.333 12.373-30.293l85.333-85.333c16.64-17.067 43.52-17.493 60.587-1.28 17.067 16.64 17.493 43.52 0 61.867l-12.8 12.373 137.813 137.813 152.32 109.227 405.333 405.333c16.64 16.64 16.64 43.947 0 60.587l-42.667 42.667c-8.96 8.107-19.2 12.373-30.293 12.373zM789.333 405.333c-58.91 0-106.667-47.756-106.667-106.667v0c0-58.91 47.756-106.667 106.667-106.667v0c58.91 0 106.667 47.756 106.667 106.667v0c0 58.91-47.756 106.667-106.667 106.667v0z" />
<glyph unicode="&#xe913;" glyph-name="basketball" d="M99.84 335.787c25.6 9.387 52.053 14.080 80.213 14.080 57.173 0 107.093-17.92 149.76-53.76l-133.973-133.973c-45.227 51.2-77.227 109.653-96 173.653zM663.893 541.867c84.053-62.72 174.933-78.080 272.213-46.080 1.28-8.96 2.56-25.173 2.56-47.787 0-43.947-10.667-93.013-30.72-147.2-20.053-53.76-44.8-97.28-73.813-130.133l-270.080 269.227 99.84 101.973zM374.187 250.027c45.227-65.28 54.613-136.533 27.733-214.187-60.587 17.493-114.773 44.8-160 82.347l132.267 131.84zM520.107 395.947l269.227-270.080c-92.587-81.067-201.387-115.2-325.12-101.973 8.96 28.16 13.653 58.88 13.653 92.16 0 26.453-5.973 57.6-17.92 93.013s-26.027 64.427-41.813 87.040l101.973 99.84zM375.893 341.333c-39.68 35.413-85.76 57.6-137.813 67.84-52.053 9.813-101.973 6.827-150.187-9.387-1.28 9.387-2.56 25.6-2.56 48.213 0 43.947 10.667 93.013 30.72 147.2 20.053 53.76 44.8 97.28 73.813 130.133l284.16-285.44-98.133-98.56zM663.893 630.187c-57.173 70.4-70.4 147.2-39.68 229.973 26.453-6.827 56.747-19.627 90.88-39.253 33.707-19.2 61.44-38.4 82.773-56.747l-133.973-133.973zM924.16 559.787c-25.6-8.96-52.053-13.653-80.213-13.653-46.507 0-91.307 13.653-133.973 41.813l131.84 130.133c37.547-46.933 64.853-99.413 82.347-158.293zM520.107 485.973l-285.44 284.16c92.587 81.067 201.387 115.2 325.547 101.973-9.387-28.16-14.080-58.88-14.080-92.16 0-30.72 6.827-65.28 20.907-104.107 14.080-38.4 30.293-69.12 51.627-91.733l-98.56-98.133z" />
<glyph unicode="&#xe914;" glyph-name="star" d="M512 223.147l263.68-159.147-69.973 299.947 232.96 201.813-306.773 26.453-119.893 282.453-119.893-282.453-306.773-26.453 232.533-201.813-69.547-299.947 263.68 159.147z" />
<glyph unicode="&#xe915;" glyph-name="text-box" d="M597.333 234.667h-298.667v85.333h298.667zM725.333 405.333h-426.667v85.333h426.667zM725.333 576h-426.667v85.333h426.667zM810.667 832h-597.333c-47.36 0-85.333-37.973-85.333-85.333v-597.333c0-47.128 38.205-85.333 85.333-85.333v0h597.333c47.128 0 85.333 38.205 85.333 85.333v0 597.333c0 47.36-38.4 85.333-85.333 85.333z" />
<glyph unicode="&#xe916;" glyph-name="shield-search" d="M512 576c70.692 0 128-57.308 128-128v0c0-70.692-57.308-128-128-128v0c-70.692 0-128 57.308-128 128v0c0 70.692 57.308 128 128 128v0zM762.027 136.107c-69.547-81.493-152.747-133.973-250.027-157.44-109.227 26.027-200.533 88.32-273.92 186.453-73.387 97.707-110.080 206.080-110.080 325.547v256l384 170.667 384-170.667v-256c0-101.973-27.307-196.693-81.92-284.587l-124.16 124.16c22.187 33.707 35.413 75.093 35.413 117.76 0 117.821-95.513 213.333-213.333 213.333v0c-117.821 0-213.333-95.513-213.333-213.333v0c0-117.821 95.513-213.333 213.333-213.333v0c42.667 0 84.053 13.227 117.76 35.413l132.267-133.973z" />
<glyph unicode="&#xe917;" glyph-name="book-open-variant" d="M746.667 348.587c33.707 0 69.547-3.413 106.667-10.24v-64c-26.453 6.827-62.293 10.24-106.667 10.24-81.067 0-144.64-14.080-192-42.24v72.107c49.92 22.613 113.92 34.133 192 34.133zM554.667 428.373c55.040 22.613 119.040 33.707 192 33.707 33.707 0 69.547-2.987 106.667-9.813v-64c-26.453 6.827-62.293 10.24-106.667 10.24-81.067 0-144.64-14.507-192-42.24zM746.667 512c-81.067 0-144.64-13.653-192-42.667v70.827c52.48 23.893 116.48 35.84 192 35.84 33.707 0 69.547-3.413 106.667-9.813v-66.133c-31.573 8.107-67.84 11.947-106.667 11.947zM896 170.667v490.667c-44.373 14.080-94.293 21.333-149.333 21.333-87.467 0-165.547-21.333-234.667-64v-490.667c69.12 42.667 147.2 64 234.667 64 50.773 0 100.693-6.827 149.333-21.333zM746.667 768c100.267 0 178.773-21.333 234.667-64v-621.227c0-5.12-2.133-10.24-6.827-14.933-4.693-3.84-9.813-7.253-14.507-7.253s-8.107 0.853-10.667 2.133c-54.613 29.44-122.453 43.947-202.667 43.947-87.467 0-165.547-21.333-234.667-64-57.173 42.667-135.253 64-234.667 64-70.827 0-138.667-15.36-202.667-45.653-1.28-0.427-2.987-0.427-5.12-1.28-1.707-0.427-3.413-0.853-5.547-0.853-4.693 0-9.813 1.707-14.507 5.12-4.693 4.693-6.827 9.387-6.827 14.933v625.067c57.173 42.667 135.68 64 234.667 64 99.413 0 177.493-21.333 234.667-64 57.173 42.667 135.253 64 234.667 64z" />
<glyph unicode="&#xe918;" glyph-name="rss" d="M263.68 292.693c51.37 0 93.013-41.643 93.013-93.013v0c0-50.347-41.813-93.013-93.013-93.013-50.347 0-93.013 42.667-93.013 93.013 0 51.37 41.643 93.013 93.013 93.013v0zM170.667 770.56c366.658 0 663.893-297.235 663.893-663.893v0h-120.747c0 299.972-243.175 543.147-543.147 543.147v0 120.747zM170.667 529.067c233.285 0 422.4-189.115 422.4-422.4h-120.747c0 166.599-135.055 301.653-301.653 301.653v0 120.747z" />
<glyph unicode="&#xe919;" glyph-name="reddit" d="M618.667 302.507c3.413-3.84 3.413-11.947 0-16.64-31.147-29.867-89.173-32.427-106.667-32.427-16.64 0-74.667 2.56-104.96 32.427-4.267 4.693-4.267 12.8 0 16.64 4.693 4.267 11.947 4.267 16.213 0 19.627-19.627 60.16-25.173 88.747-25.173 29.44 0 70.827 5.547 89.6 25.173 4.693 4.267 11.947 4.267 17.067 0zM458.667 403.627c0 24.32-20.053 44.373-44.373 44.373s-44.373-20.053-44.373-44.373c0-24.32 20.053-44.8 44.373-44.373 24.32 0 44.373 20.053 44.373 44.373zM609.707 448c-24.32 0-44.373-21.333-44.373-44.8s20.053-44.373 44.373-44.373c24.32 0 44.373 20.48 44.373 44.373 0 23.467-20.053 44.8-44.373 44.8zM938.667 448c0-234.667-192-426.667-426.667-426.667s-426.667 192-426.667 426.667c0 234.667 192 426.667 426.667 426.667s426.667-192 426.667-426.667zM796.587 448c0 34.56-28.587 62.293-61.867 62.293-17.067 0-32.427-6.827-43.52-17.493-42.667 30.72-101.12 50.347-166.4 52.907l28.587 133.547 92.587-20.053c0.853-23.467 20.48-42.24 44.373-42.24 24.32 0 44.373 20.053 44.373 44.373s-20.053 44.373-44.373 44.373c-17.493 0-32.853-10.24-39.68-25.173l-103.68 22.187c-2.987 1.28-5.973 0-8.107-1.707-2.56-1.707-3.84-4.267-4.267-7.253l-31.573-148.48c-66.133-2.133-125.867-21.76-169.387-52.907-11.093 10.667-26.453 17.067-43.093 17.067-34.56 0-62.293-27.733-62.293-61.44 0-26.027 15.36-47.36 36.693-57.173-0.853-6.827-1.28-11.947-1.28-18.773 0-94.72 111.36-173.653 248.32-173.653 137.813 0 249.6 77.653 249.6 173.653 0 5.973-0.427 11.947-1.707 18.773 21.333 9.813 36.693 31.573 36.693 57.173z" />
<glyph unicode="&#xe91a;" glyph-name="bloglovin" d="M213.333 832c-46.933 0-85.333-38.4-85.333-85.333v-597.333c0-47.36 38.827-85.333 85.333-85.333h597.333c46.933 0 85.333 38.4 85.333 85.333v597.333c0 46.507-37.973 85.333-85.333 85.333h-597.333zM384 618.667h107.083c37.547 0 67.010-8.527 87.917-25.167 21.333-16.64 31.583-41.397 31.583-74.25 0-17.493-3.903-32.857-11.583-46.083-7.253-13.653-18.723-23.423-34.083-30.25 19.2-4.267 33.29-14.15 42.25-29.083 9.387-15.36 13.667-32.78 13.667-52.833 0-34.987-9.863-61.497-29.917-79.417-19.627-17.92-48.213-26.833-85.333-26.833h-121.583v363.917zM720.25 618.667c6.827 0 13.183-1.273 19.583-3.833 6.4-2.987 11.983-6.797 16.25-11.917 3.84-4.693 6.783-10.267 8.917-16.667s3-13.247 3-20.5c0-13.653-2.14-25.98-6.833-37.5s-11.55-21.79-20.083-30.75c-3.84-4.267-8.057-7.67-12.75-11.083s-9.4-6.45-13.667-8.583c-4.267-2.56-8.097-4.21-11.083-5.917-2.987-1.28-5.157-2.157-5.583-2.583l-20.417 32c3.413 1.28 7.64 3.023 12.333 5.583 4.693 2.133 8.983 5.087 13.25 8.5s7.69 7.65 10.25 11.917c2.56 4.693 4.24 10.277 4.667 16.25-9.813 0-18.737 3.443-26.417 9.417-7.253 5.973-11.167 14.897-11.167 26.417 0 4.693 0.877 9.39 2.583 14.083s4.253 8.493 7.667 12.333c3.413 3.84 7.713 6.857 12.833 9.417 4.693 2.133 10.267 3.417 16.667 3.417zM455.25 561.917v-96.833h39.25c14.507 0 25.57 4.227 33.25 12.333s11.583 20.067 11.583 35c0 17.067-3.893 29.903-12 37.583-7.68 8.107-20.037 11.917-36.25 11.917h-35.833zM455.25 415.167v-103.667h50.333c14.933 0 26.070 4.227 33.75 12.333 7.253 8.533 11.083 20.953 11.083 37.167 0 17.493-3.433 30.697-9.833 40.083-5.973 9.387-16.17 14.083-30.25 14.083h-55.083z" />
<glyph unicode="&#xe91b;" glyph-name="medium" d="M298.667 704c-164.949 0-298.667-133.718-298.667-298.667s133.718-298.667 298.667-298.667v0c164.949 0 298.667 133.718 298.667 298.667s-133.718 298.667-298.667 298.667v0zM768 682.667c-70.692 0-128-124.166-128-277.333s57.308-277.333 128-277.333v0c70.692 0 128 124.166 128 277.333s-57.308 277.333-128 277.333v0zM981.333 618.667c-23.564 0-42.667-95.513-42.667-213.333s19.103-213.333 42.667-213.333v0c23.564 0 42.667 95.513 42.667 213.333s-19.103 213.333-42.667 213.333v0z" />
<glyph unicode="&#xe91c;" glyph-name="snapchat" d="M935.68 253.44c-5.973 16.213-18.347 23.893-30.293 32-2.133 1.28-4.693 2.56-6.4 3.413-2.987 2.133-7.68 3.84-11.52 5.973-40.107 21.333-71.68 48.213-93.44 79.787-5.973 9.387-11.093 18.347-15.787 28.16-1.707 5.547-1.707 8.533-0.427 11.093 1.28 2.133 2.987 4.267 5.12 5.547 6.4 4.693 14.080 8.96 18.773 12.373 8.96 5.547 15.36 9.813 19.627 12.8 16.64 11.52 28.16 24.747 35.413 37.547 10.24 19.2 11.52 41.813 3.413 61.867-10.667 28.587-37.973 46.507-70.827 46.507-6.827 0-13.653-0.853-21.333-2.133 0-0.427-2.56-0.853-4.267-1.28 0 19.627-0.427 40.107-2.133 60.587-5.973 71.68-31.147 109.227-57.6 139.093-16.64 18.773-36.267 34.987-58.027 47.36-39.68 22.613-84.907 34.133-133.973 34.133s-93.867-11.52-133.547-34.133c-22.187-12.373-41.813-28.587-58.453-47.36-26.453-29.867-51.2-67.413-57.6-139.093-1.707-20.48-2.133-40.96-1.707-60.587-2.133 0.427-4.693 0.853-4.693 1.28-7.68 1.28-14.507 2.133-21.333 2.133-32.853 0-60.16-17.92-70.827-46.507-8.107-20.053-6.827-42.667 3.413-61.867 7.253-12.8 18.773-26.027 35.413-37.547 4.267-2.987 10.667-7.253 19.627-13.227l17.92-11.52c2.56-1.707 4.267-3.84 5.973-5.973 1.28-2.987 1.28-5.973-0.853-11.52-4.267-9.813-9.387-18.347-15.36-27.733-21.333-31.147-51.627-57.6-90.453-78.507-20.907-11.093-42.24-18.773-51.2-42.667-6.827-18.773-2.987-40.107 14.933-57.6 6.4-6.4 13.653-11.947 21.76-16.213 17.067-8.96 34.987-16.64 53.333-21.333 3.84-1.28 7.68-2.56 10.667-5.12 6.4-5.12 5.547-13.653 14.080-25.173 4.267-6.827 10.24-12.373 15.787-16.64 17.493-12.373 37.12-12.8 58.453-13.653 18.773-0.853 40.107-1.707 64-9.813 11.093-2.56 21.333-9.813 33.707-17.493 30.293-17.92 69.547-42.667 136.96-42.667 66.987 0 106.667 24.747 137.387 43.093 11.947 7.253 22.613 14.507 33.28 17.067 23.467 8.107 45.227 8.96 64 9.813 21.333 0.427 40.96 1.28 58.453 13.653 7.253 5.12 13.227 11.947 17.92 19.627 5.973 10.24 5.973 18.347 11.52 22.187 2.987 2.133 6.4 3.84 10.24 4.693 18.773 5.12 36.693 12.8 53.76 21.76 8.96 4.693 16.64 10.667 23.040 17.92h0.427c16.64 17.493 20.053 37.12 13.653 55.893zM875.947 221.44c-36.693-20.053-61.013-17.92-79.787-29.44-6.827-5.12-8.96-11.947-10.24-18.773-0.427-2.56-0.853-5.973-1.28-8.533-0.853-5.973-2.133-11.093-6.4-14.080-14.507-9.813-56.747 0.853-111.36-17.067-45.227-14.933-73.813-58.027-154.88-58.027s-108.8 42.667-154.88 58.027c-54.187 17.92-96.853 7.253-110.933 17.067-11.52 8.107-2.133 30.293-18.347 41.387-18.773 11.52-43.093 9.387-78.507 29.44-13.227 6.827-15.36 13.227-13.653 16.213 1.707 3.84 6.827 6.827 10.24 8.533 70.4 33.707 110.080 77.653 130.133 112.213 18.773 30.72 22.613 54.187 23.893 57.6 1.28 8.96 2.56 15.787-7.253 24.747-9.387 8.96-51.2 34.56-62.72 42.667-19.627 13.653-27.733 26.88-21.76 43.52v0 0c5.12 11.52 14.933 15.787 26.453 15.787 3.413 0 6.827-0.427 10.24-1.28 21.333-4.267 41.813-14.933 53.76-17.92 1.28-0.427 2.56-0.427 4.267-0.427 3.84 0 5.973 1.28 7.253 3.84 0.427 1.707 0.853 3.84 0.853 6.4-1.707 23.040-4.693 67.84-1.28 110.080 1.707 17.92 4.693 33.28 8.533 46.507 8.533 29.013 23.040 48.213 37.547 65.707 10.667 12.373 60.16 64.853 156.16 64.853 78.933 0 126.293-35.84 146.773-55.040 4.267-4.267 7.68-7.68 9.387-9.813 16.213-18.773 30.72-39.253 39.253-71.68 2.987-11.52 5.547-25.173 6.827-40.533 3.413-41.813 0.427-87.040-1.28-110.080 0-1.707 0-3.413 0.427-4.693 0.427-3.84 2.987-5.547 7.68-5.547 1.707 0 2.987 0 4.267 0.427 11.947 2.987 32.427 13.653 53.76 18.347 3.413 0.427 6.827 0.853 10.24 0.853 10.667 0 21.333-3.84 25.6-13.653l0.427-1.707h0.427v-0.427c6.4-16.213-2.133-29.867-21.333-43.093-11.52-8.107-53.76-34.133-63.147-42.667-9.813-9.387-8.533-16.213-7.253-25.173 1.28-4.267 8.96-44.8 47.36-90.027 23.467-27.307 57.173-55.893 106.667-79.787 2.987-1.28 6.827-3.413 8.96-5.973 1.28-2.133 2.133-3.84 1.707-5.547-0.427-4.267-4.267-8.533-12.8-13.227z" />
<glyph unicode="&#xe91d;" d="M469.333 469.333c0-129.603-105.064-234.667-234.667-234.667s-234.667 105.064-234.667 234.667c0 129.603 105.064 234.667 234.667 234.667s234.667-105.064 234.667-234.667z" />
<glyph unicode="&#xe91e;" d="M1024 469.333c0-129.603-105.064-234.667-234.667-234.667s-234.667 105.064-234.667 234.667c0 129.603 105.064 234.667 234.667 234.667s234.667-105.064 234.667-234.667z" />
<glyph unicode="&#xe91f;" glyph-name="twitch" d="M496.64 706.987h61.013v-182.613h-61.013zM664.32 706.987h61.013v-182.613h-61.013zM298.667 874.667l-152.32-152.32v-548.693h182.613v-152.32l152.747 152.32h121.6l274.347 274.347v426.667zM816.64 478.293l-121.6-121.6h-122.027l-106.667-106.667v106.667h-137.387v456.96h487.68z" />
<glyph unicode="&#xe920;" glyph-name="vk" d="M810.667 832h-597.333c-47.147 0-85.333-38.187-85.333-85.333v-597.333c0-47.147 38.187-85.333 85.333-85.333h597.333c47.147 0 85.333 38.187 85.333 85.333v597.333c0 47.147-38.187 85.333-85.333 85.333zM764.032 290.816l-74.027-1.024c0 0-15.957-3.115-36.864 11.307-27.691 19.029-53.803 68.523-74.155 62.080-20.651-6.571-20.011-51.115-20.011-51.115s0.171-7.851-4.565-12.971c-5.12-5.504-15.147-4.949-15.147-4.949h-33.152c0 0-73.131-6.059-137.6 61.141-70.229 73.259-132.267 217.856-132.267 217.856s-3.627 9.131 0.256 13.781c4.395 5.163 16.256 5.291 16.256 5.291l79.232 0.384c0 0 7.467-1.323 12.843-5.248 4.395-3.243 6.912-9.344 6.912-9.344s12.8-32.469 29.781-61.867c33.109-57.301 48.512-69.845 59.733-63.701 16.384 8.96 11.477 80.981 11.477 80.981s0.299 26.155-8.235 37.803c-6.656 9.088-19.157 11.776-24.661 12.459-4.48 0.597 2.816 10.965 12.331 15.659 14.251 6.955 39.467 7.381 69.205 7.083 23.168-0.256 29.867-1.664 38.912-3.883 27.349-6.613 18.048-32.128 18.048-93.355 0-19.627-3.541-47.189 10.581-56.277 6.101-3.925 20.949-0.597 58.027 62.549 17.621 29.952 30.805 65.152 30.805 65.152s2.901 6.272 7.381 8.96c4.608 2.773 10.795 1.92 10.795 1.92l83.413 0.512c0 0 25.045 3.029 29.141-8.363 4.267-11.904-9.344-39.68-43.435-85.12-55.936-74.667-62.165-67.712-15.701-110.891 44.373-41.259 53.547-61.312 55.083-63.829 18.347-30.549-20.395-32.981-20.395-32.981z" />
<glyph unicode="&#xe921;" glyph-name="github" d="M465.067 870.4c-196.267-21.333-354.133-179.2-375.467-371.2-21.333-200.533 93.867-379.733 268.8-448 12.8-4.267 25.6 4.267 25.6 21.333v68.267c0 0-17.067-4.267-38.4-4.267-59.733 0-85.333 51.2-89.6 81.067-4.267 17.067-12.8 29.867-25.6 42.667-12.8 4.267-17.067 4.267-17.067 8.533 0 8.533 12.8 8.533 17.067 8.533 25.6 0 46.933-29.867 55.467-42.667 21.333-34.133 46.933-42.667 59.733-42.667 17.067 0 29.867 4.267 38.4 8.533 4.267 29.867 17.067 59.733 42.667 76.8-98.133 21.333-170.667 76.8-170.667 170.667 0 46.933 21.333 93.867 51.2 128-4.267 8.533-8.533 29.867-8.533 59.733 0 17.067 0 42.667 12.8 68.267 0 0 59.733 0 119.467-55.467 21.333 8.533 51.2 12.8 81.067 12.8s59.733-4.267 85.333-12.8c55.467 55.467 119.467 55.467 119.467 55.467 8.533-25.6 8.533-51.2 8.533-68.267 0-34.133-4.267-51.2-8.533-59.733 29.867-34.133 51.2-76.8 51.2-128 0-93.867-72.533-149.333-170.667-170.667 25.6-21.333 42.667-59.733 42.667-98.133v-110.933c0-12.8 12.8-25.6 29.867-21.333 157.867 64 268.8 217.6 268.8 396.8 0 256-217.6 456.533-473.6 426.667z" />
<glyph unicode="&#xe922;" glyph-name="behance" d="M204.8 823.467c-37.717 0-68.267-30.549-68.267-68.267v-614.4c0-37.717 30.549-68.267 68.267-68.267h614.4c37.717 0 68.267 30.549 68.267 68.267v614.4c0 37.717-30.549 68.267-68.267 68.267h-614.4zM597.333 584.533h87.267c9.421 0 17.067-7.646 17.067-17.067s-7.646-17.067-17.067-17.067h-87.267c-9.421 0-17.067 7.646-17.067 17.067s7.646 17.067 17.067 17.067zM304.467 571.4h95.067c56.115 0 89.6-27.453 89.6-72.133 0-30.652-22.671-57.397-52.333-61.8v-3.6c38.298-2.799 66.133-31.66 66.133-68.933 0.034-50.688-38.253-82.8-100-82.8h-98.467c-17.34 0-31.4 14.060-31.4 31.4v226.467c0 17.34 14.060 31.4 31.4 31.4zM333.6 525.133v-73.6h45.467c32.7-0.034 50.533 13.422 50.533 36.667 0 23.040-16.59 36.933-45.467 36.933h-50.533zM647.267 508.067c65.161 0 103.6-41.523 103.6-111.667v-17.8h-151.667v-3c0.785-32.87 20.052-53.333 50.533-53.333 23.040 0 38.854 8.191 45.067 22.8h54.333c-8.806-41.711-46.931-67.733-101.067-67.733-67.345 0-107 42.518-107 114.267 0 71.953 40.459 116.467 106.2 116.467zM647.533 463.333c-27.068 0-46.154-18.795-48.133-47.467h94.2c-1.229 29.252-18.828 47.467-46.067 47.467zM333.6 410.6v-82.2h53.933c34.884 0 53.733 14.7 53.733 41.733 0 26.487-19.464 40.467-55.133 40.467h-52.533z" />
<glyph unicode="&#xe923;" glyph-name="tumblr" d="M819.2 823.467h-614.4c-37.717 0-68.267-30.549-68.267-68.267v-614.4c0-37.717 30.549-68.267 68.267-68.267h614.4c37.717 0 68.267 30.549 68.267 68.267v614.4c0 37.717-30.549 68.267-68.267 68.267zM682.667 218.829c0-1.877-0.751-3.755-2.253-4.881-1.877-1.877-55.603-39.014-153.771-39.014-117.76 0-117.043 140.971-117.043 156.023v156.023h-71.236c-3.789 0-6.793 3.004-6.793 6.793v64.819c0 3.004 1.536 5.257 4.13 6.383 1.126 0.375 112.879 49.596 112.879 149.265 0.034 3.823 3.038 6.827 6.827 6.827h64.478c3.755 0 6.758-3.004 6.758-6.793v-149.265h110.251c3.379 0 6.793-3.004 6.793-6.793v-64.478c0-3.755-3.379-6.758-6.793-6.758h-110.251v-156.023c0-2.253-3.584-49.698 46.797-49.698 41.404 0 98.304 13.551 98.679 13.551 2.253 1.536 4.881 1.536 6.793 0.375 2.219-1.126 3.755-3.379 3.755-6.007v-70.349z" />
<glyph unicode="&#xe924;" glyph-name="dribbble" d="M512 832c-211.75 0-384-172.25-384-384s172.25-384 384-384c211.75 0 384 172.25 384 384s-172.25 384-384 384zM512 768c81.125 0 154.625-30.5 211-80-6-8.375-14.125-18.5-27-31-27.375-26.5-71.125-58.375-138-83-45.25 83.625-89.625 146.5-119 186 23.375 5.375 47.875 8 73 8zM376 738c26.25-34.375 73-98.125 120-183-130.125-34.5-249.5-38.875-297-39 21.25 98.875 87.75 180.25 177 222zM767 641c39-51.625 63.25-115.5 65-185-28.5 6.375-70.5 12.625-125 13-28.375 0.125-60.5-1.875-95-6-8 18.25-16.625 35.875-25 53 71.75 27.5 120.625 63.75 153 95 11 10.75 19.625 20.625 27 30zM525 497c7.375-14.875 14.875-30.125 22-46-136.75-37.875-235-153.875-277-212-48.375 56-78 129-78 209 0 1.375 0 2.625 0 4 43.25-0.5 180.75 2.5 333 45zM707 406c57.125 0 96.625-8 120-14-14.875-85.25-63-158.375-131-206-12.75 76.5-33.75 149.25-59 216 25.25 2.5 49.125 4 70 4zM572 391c28.75-73 52.875-153.125 65-238-38.25-16.125-80.75-25-125-25-73.375 0-141.125 24.625-195 66 32.875 45 129.5 164.75 255 197z" />
<glyph unicode="&#xe925;" glyph-name="spotify" d="M763.733 494.933c-136.533 81.067-364.8 89.6-494.933 49.067-21.333-6.4-42.667 6.4-49.067 25.6-6.4 21.333 6.4 42.667 25.6 49.067 151.467 44.8 401.067 36.267 558.933-57.6 19.2-10.667 25.6-36.267 14.933-55.467-10.667-14.933-36.267-21.333-55.467-10.667zM759.467 375.467c-10.667-14.933-29.867-21.333-44.8-10.667-115.2 70.4-290.133 91.733-424.533 49.067-17.067-4.267-36.267 4.267-40.533 21.333s4.267 36.267 21.333 40.533c155.733 46.933 347.733 23.467 480-57.6 12.8-6.4 19.2-27.733 8.533-42.667zM708.267 258.133c-8.533-12.8-23.467-17.067-36.267-8.533-100.267 61.867-226.133 74.667-375.467 40.533-14.933-4.267-27.733 6.4-32 19.2-4.267 14.933 6.4 27.733 19.2 32 162.133 36.267 302.933 21.333 413.867-46.933 14.933-6.4 17.067-23.467 10.667-36.267zM512 874.667c-235.641 0-426.667-191.025-426.667-426.667v0c0-235.641 191.025-426.667 426.667-426.667v0c235.641 0 426.667 191.025 426.667 426.667v0c0 235.641-191.025 426.667-426.667 426.667v0z" />
<glyph unicode="&#xe926;" glyph-name="vimeo" d="M938.667 643.413c-3.84-83.2-61.867-197.12-174.080-342.187-116.053-151.893-214.187-226.56-295.253-226.56-49.067 0-91.307 46.080-125.867 138.667-23.467 83.627-44.8 168.107-68.693 252.587-25.6 92.16-52.907 138.24-82.773 138.24-5.973 0-28.16-13.653-66.56-40.533l-40.107 52.053c42.667 37.12 83.627 74.24 124.587 111.36 56.32 48.64 98.56 74.24 126.293 76.8 66.56 6.827 107.52-39.253 122.88-136.533 16.64-105.387 28.16-170.667 34.56-196.267 18.347-87.040 39.68-129.707 63.147-129.707 17.92 0 44.8 27.307 80.64 84.053 35.84 56.32 55.040 99.413 57.6 129.28 5.12 48.64-14.080 72.96-57.6 72.96-20.48 0-41.387-4.693-63.147-14.080 41.813 137.813 122.027 204.8 240.213 200.96 87.893-2.56 129.28-59.733 124.16-171.093z" />
<glyph unicode="&#xe927;" glyph-name="telegram" d="M512 919.040c260.157 0 471.040-210.883 471.040-471.040s-210.883-471.040-471.040-471.040-471.040 210.883-471.040 471.040 210.883 471.040 471.040 471.040zM674.488 256c8.663 26.583 49.254 291.512 54.272 343.716 1.516 15.811-3.482 26.317-13.271 31.007-11.837 5.693-29.368 2.847-49.705-4.485-27.894-10.056-384.492-161.464-405.094-170.23-19.538-8.294-38.011-17.347-38.011-30.454 0-9.216 5.468-14.397 20.541-19.784 15.688-5.591 55.194-17.572 78.52-24.003 22.467-6.205 48.046-0.819 62.382 8.090 15.196 9.441 190.566 126.792 203.162 137.073 12.575 10.281 22.61-2.888 12.329-13.189-10.281-10.281-130.662-127.119-146.534-143.299-19.272-19.64-5.591-39.997 7.332-48.148 14.766-9.298 120.955-80.527 136.95-91.955s32.215-16.609 47.063-16.609c14.848 0 22.671 19.558 30.065 42.271z" />
<glyph unicode="&#xe928;" glyph-name="youtube" d="M426.667 320l221.44 128-221.44 128v-256zM919.893 654.080c5.547-20.053 9.387-46.933 11.947-81.067 2.987-34.133 4.267-63.573 4.267-89.173l2.56-35.84c0-93.44-6.827-162.133-18.773-206.080-10.667-38.4-35.413-63.147-73.813-73.813-20.053-5.547-56.747-9.387-113.067-11.947-55.467-2.987-106.24-4.267-153.173-4.267l-67.84-2.56c-178.773 0-290.133 6.827-334.080 18.773-38.4 10.667-63.147 35.413-73.813 73.813-5.547 20.053-9.387 46.933-11.947 81.067-2.987 34.133-4.267 63.573-4.267 89.173l-2.56 35.84c0 93.44 6.827 162.133 18.773 206.080 10.667 38.4 35.413 63.147 73.813 73.813 20.053 5.547 56.747 9.387 113.067 11.947 55.467 2.987 106.24 4.267 153.173 4.267l67.84 2.56c178.773 0 290.133-6.827 334.080-18.773 38.4-10.667 63.147-35.413 73.813-73.813z" />
<glyph unicode="&#xe929;" glyph-name="soundcloud" d="M493.227 581.547v-346.88h373.76c78.933 5.547 114.347 54.187 114.347 113.92 0 63.147-47.787 113.92-111.787 113.92-16.213 0-29.867-3.413-43.947-9.387-10.24 99.84-95.147 177.92-199.68 177.92-49.92 0-97.28-18.773-132.693-49.493zM455.68 538.027c-12.8 7.68-26.453 13.653-41.387 16.64v-320h59.307v326.827c-6.4-6.827-12.373-15.36-17.92-23.467zM355.413 561.067v-326.4h39.253v325.12c-8.107 1.28-16.213 1.707-24.747 1.707-5.12 0-9.813 0-14.507-0.427zM277.333 533.333v-298.667h38.827v318.293c-14.080-4.693-27.307-11.52-38.827-19.627zM206.080 426.667c-2.56 0-5.12 2.56-8.107 3.84v-195.84h39.253v261.973c-15.787-20.48-26.453-44.8-31.147-69.973zM119.040 438.613v-200.107c8.96-2.56 19.2-3.84 30.293-3.84h9.387v207.36c-3.413 0.427-6.827 0.853-9.387 0.853-11.093 0-21.333-1.707-30.293-4.267zM42.667 338.773c0-32 14.507-60.16 37.12-79.36v158.293c-22.613-18.773-37.12-47.36-37.12-78.933z" />
<glyph unicode="&#xe92a;" glyph-name="pinterest" d="M385.707 40.96c40.96-12.373 82.347-19.627 126.293-19.627 235.641 0 426.667 191.025 426.667 426.667v0c0 235.641-191.025 426.667-426.667 426.667v0c-235.641 0-426.667-191.025-426.667-426.667v0c0-181.333 113.92-337.067 274.773-398.507-3.84 33.28-7.68 88.32 0 126.293l49.067 210.773c0 0-12.373 24.747-12.373 64 0 58.88 36.693 102.827 78.507 102.827 36.693 0 53.76-26.88 53.76-61.44 0-36.693-24.32-89.173-36.693-139.52-7.253-41.813 22.187-78.507 64.853-78.507 75.947 0 134.827 81.067 134.827 195.413 0 102.4-73.387 172.373-178.773 172.373-120.32 0-191.147-89.6-191.147-183.893 0-36.693 11.947-73.813 31.573-98.133 3.84-2.56 3.84-5.973 2.56-12.373l-12.373-46.507c0-7.253-4.693-9.813-11.947-4.693-54.613 23.893-86.187 101.547-86.187 164.267 0 134.827 95.573 257.28 279.893 257.28 146.773 0 261.12-105.387 261.12-245.333 0-146.773-90.88-264.533-221.013-264.533-41.387 0-81.92 22.187-96.427 48.213l-28.587-101.12c-9.813-36.693-36.693-85.76-55.040-115.2v1.28z" />
<glyph unicode="&#xe92b;" glyph-name="linkedin" d="M810.667 832c47.128 0 85.333-38.205 85.333-85.333v0-597.333c0-47.128-38.205-85.333-85.333-85.333v0h-597.333c-47.128 0-85.333 38.205-85.333 85.333v0 597.333c0 47.128 38.205 85.333 85.333 85.333v0h597.333zM789.333 170.667v226.133c0 76.819-62.274 139.093-139.093 139.093v0c-36.267 0-78.507-22.187-98.987-55.467v47.36h-119.040v-357.12h119.040v210.347c0 32.853 26.453 59.733 59.307 59.733 32.99 0 59.733-26.744 59.733-59.733v0-210.347h119.040zM293.547 594.773c39.588 0 71.68 32.092 71.68 71.68v0c0 39.68-32 72.107-71.68 72.107-39.823 0-72.107-32.283-72.107-72.107v0c0-39.68 32.427-71.68 72.107-71.68zM352.853 170.667v357.12h-118.187v-357.12h118.187z" />
<glyph unicode="&#xe92c;" glyph-name="instagram" d="M332.8 874.667h358.4c136.533 0 247.467-110.933 247.467-247.467v-358.4c0-136.672-110.795-247.467-247.467-247.467v0h-358.4c-136.533 0-247.467 110.933-247.467 247.467v358.4c0 136.672 110.795 247.467 247.467 247.467v0zM324.267 789.333c-84.831 0-153.6-68.769-153.6-153.6v0-375.467c0-84.907 68.693-153.6 153.6-153.6h375.467c84.831 0 153.6 68.769 153.6 153.6v0 375.467c0 84.907-68.693 153.6-153.6 153.6h-375.467zM736 725.333c29.455 0 53.333-23.878 53.333-53.333v0c0-29.455-23.878-53.333-53.333-53.333v0c-29.455 0-53.333 23.878-53.333 53.333v0c0 29.455 23.878 53.333 53.333 53.333v0zM512 661.333c117.821 0 213.333-95.513 213.333-213.333v0c0-117.821-95.513-213.333-213.333-213.333v0c-117.821 0-213.333 95.513-213.333 213.333v0c0 117.821 95.513 213.333 213.333 213.333v0zM512 576c-70.692 0-128-57.308-128-128v0c0-70.692 57.308-128 128-128v0c70.692 0 128 57.308 128 128v0c0 70.692-57.308 128-128 128v0z" />
<glyph unicode="&#xe92d;" glyph-name="twitter" d="M958.293 704c-32.853-14.933-68.267-24.747-104.96-29.44 37.547 22.613 66.56 58.453 80.213 101.547-35.413-21.333-74.667-36.267-116.053-44.8-33.707 36.693-81.067 58.027-134.827 58.027-100.267 0-182.187-81.92-182.187-183.040 0-14.507 1.707-28.587 4.693-41.813-151.893 7.68-287.147 80.64-377.173 191.147-15.787-26.88-24.747-58.453-24.747-91.733 0-63.573 32-119.893 81.493-151.893-30.293 0-58.453 8.533-83.2 21.333 0 0 0 0 0-1.28 0-88.747 63.147-162.987 146.773-179.627-15.36-4.267-31.573-6.4-48.213-6.4-11.52 0-23.040 1.28-34.133 3.413 23.040-72.107 90.027-125.867 170.667-127.147-62.293-49.493-141.227-78.507-227.413-78.507-14.507 0-29.013 0.853-43.52 2.56 81.067-52.053 177.493-82.347 280.747-82.347 336.213 0 520.96 279.040 520.96 520.96 0 8.107 0 15.787-0.427 23.893 35.84 25.6 66.56 58.027 91.307 95.147z" />
<glyph unicode="&#xe92e;" glyph-name="facebook-messenger" d="M512 874.667c-240.64 0-426.667-176.213-426.667-413.867 0-124.16 50.773-232.107 133.973-305.92 6.827-5.547 11.093-14.933 11.52-24.32l2.133-75.947c1.707-24.32 26.027-40.107 48.213-30.293l84.48 37.12c7.253 2.56 15.36 3.84 22.613 2.56 38.4-11.52 81.067-17.067 123.733-17.067 240.64 0 426.667 176.213 426.667 413.867s-186.027 413.867-426.667 413.867zM768 556.373l-125.013-199.253c-20.053-31.147-62.72-39.253-92.587-15.787l-99.84 73.813c-8.96 6.827-21.76 6.827-30.72 0l-134.827-102.4c-17.92-14.080-41.387 7.253-29.013 26.88l125.013 199.253c20.053 31.147 62.72 39.253 92.587 17.067l99.84-75.093c9.387-6.827 21.76-6.827 30.72 0l134.827 102.4c17.92 14.080 41.387-7.253 29.013-26.88z" />
<glyph unicode="&#xe92f;" glyph-name="facebook" d="M512 872.96c-234.667 0-426.667-191.573-426.667-427.52 0-213.333 156.16-390.4 360.107-422.4v298.667h-108.373v123.733h108.373v94.293c0 107.093 63.573 165.973 161.28 165.973 46.507 0 95.147-8.107 95.147-8.107v-105.387h-53.76c-52.907 0-69.547-32.853-69.547-66.56v-80.213h118.613l-19.2-123.733h-99.413v-298.667c205.281 33.318 360.108 209.3 360.108 421.443 0 0.336 0 0.673-0.001 1.009v-0.052c0 235.947-192 427.52-426.667 427.52z" />
<glyph unicode="&#xe930;" glyph-name="chevron-right" d="M366.507 252.587l195.413 195.413-195.413 195.84 60.16 60.16 256-256-256-256-60.16 60.587z" />
<glyph unicode="&#xe931;" glyph-name="chevron-up" d="M316.16 302.507l195.84 195.413 195.84-195.413 60.16 60.16-256 256-256-256 60.16-60.16z" />
<glyph unicode="&#xe932;" glyph-name="chevron-up-circle" d="M938.667 448c0-235.641-191.025-426.667-426.667-426.667v0c-235.641 0-426.667 191.025-426.667 426.667v0c0 235.641 191.025 426.667 426.667 426.667v0c235.641 0 426.667-191.025 426.667-426.667v0zM315.733 302.933l196.267 196.267 196.267-196.267 59.733 59.733-256 256-256-256 59.733-59.733z" />
<glyph unicode="&#xe933;" glyph-name="chevron-down" d="M316.16 593.92l195.84-195.84 195.84 195.84 60.16-60.587-256-256-256 256 60.16 60.587z" />
<glyph unicode="&#xe934;" glyph-name="chevron-down-circle" d="M938.667 448c0-235.641-191.025-426.667-426.667-426.667v0c-235.641 0-426.667 191.025-426.667 426.667v0c0 235.641 191.025 426.667 426.667 426.667v0c235.641 0 426.667-191.025 426.667-426.667v0zM256 533.333l256-256 256 256-59.733 59.733-196.267-196.267-196.267 196.267-59.733-59.733z" />
<glyph unicode="&#xe935;" glyph-name="error" d="M512 874.667c235.947 0 426.667-190.72 426.667-426.667s-190.72-426.667-426.667-426.667c-235.947 0-426.667 190.72-426.667 426.667s190.72 426.667 426.667 426.667zM665.173 661.333l-153.173-153.173-153.173 153.173-60.16-60.16 153.173-153.173-153.173-153.173 60.16-60.16 153.173 153.173 153.173-153.173 60.16 60.16-153.173 153.173 153.173 153.173-60.16 60.16z" />
<glyph unicode="&#xe936;" glyph-name="close" d="M810.667 686.507l-60.16 60.16-238.507-238.507-238.507 238.507-60.16-60.16 238.507-238.507-238.507-238.507 60.16-60.16 238.507 238.507 238.507-238.507 60.16 60.16-238.507 238.507 238.507 238.507z" />
<glyph unicode="&#xe937;" glyph-name="check" d="M896 661.333l-512-512-234.667 234.667 60.16 60.16 174.507-174.080 451.84 451.413 60.16-60.16z" />
<glyph unicode="&#xe938;" glyph-name="check-circle" d="M512 874.667c-234.667 0-426.667-192-426.667-426.667s192-426.667 426.667-426.667 426.667 192 426.667 426.667-192 426.667-426.667 426.667zM426.667 234.667l-213.333 213.333 60.16 60.16 153.173-152.747 323.84 323.84 60.16-60.587-384-384z" />
<glyph unicode="&#xe939;" glyph-name="success" d="M512 874.667c-234.667 0-426.667-192-426.667-426.667s192-426.667 426.667-426.667 426.667 192 426.667 426.667-192 426.667-426.667 426.667zM426.667 234.667l-213.333 213.333 60.16 60.16 153.173-152.747 323.84 323.84 60.16-60.587-384-384z" />
<glyph unicode="&#xe93a;" glyph-name="warning" d="M554.667 362.667h-85.333v213.333h85.333zM554.667 192h-85.333v85.333h85.333zM42.667 64h938.667l-469.333 810.667-469.333-810.667z" />
<glyph unicode="&#xe93b;" glyph-name="info" d="M554.667 576h-85.333v85.333h85.333zM554.667 234.667h-85.333v256h85.333zM512 874.667c-235.641 0-426.667-191.025-426.667-426.667v0c0-235.641 191.025-426.667 426.667-426.667v0c235.641 0 426.667 191.025 426.667 426.667v0c0 235.641-191.025 426.667-426.667 426.667v0z" />
</font>
</defs>
</svg>
